#TITLE:Gabba Mt.Fuji;
#SUBTITLE:;
#ARTIST:DJ jea;
#TITLETRANSLIT:;
#SUBTITLETRANSLIT:;
#ARTISTTRANSLIT:;
#CREDIT:;
#BANNER:Gabba Mt.Fuji-bann.jpg;
#BACKGROUND:Gabba Mt.Fuji-bg.jpg;
#LYRICSPATH:;
#CDTITLE:zebdal.png;
#MUSIC:Gabba Mt.Fuji.mp3;
#OFFSET:-0.106;
#SAMPLESTART:100.000;
#SAMPLELENGTH:12.000;
#SELECTABLE:YES;
#BPMS:0.000=238.440,32.000=237.100;
#STOPS:23.000=0.210
,761.500=0.018
;
#BGCHANGES:;
// cache tags:
#FIRSTBEAT:0.000;
#LASTBEAT:893.375;
#SONGFILENAME:Songs/nhac/Gabba Mt.Fuji/Gabba Mt.Fuji.sm;
#HASMUSIC:1;
#HASBANNER:1;
#MUSICLENGTH:232.333;
// end cache tags

//---------------dance-single - ----------------
#NOTES:
     dance-single:
     :
     Hard:
     14:
     1.000,1.000,1.000,0.224,0.105,1570.000,1187.000,52.000,0.000,24.000:
1000
0000
0000
0000
0010
0000
0000
1000
0100
0000
0000
0000
0001
0000
0000
0000
,
0010
0000
0000
0000
0100
0000
0000
0000
0001
0000
0000
0000
1000
0000
0000
0001
,
0010
0000
0000
0000
0100
0000
0000
0010
1000
0000
0000
0000
0100
0000
0000
0000
,
0001
0000
0000
0000
1000
0000
0000
0000
0100
0000
0000
0001
1000
0000
0000
0000
,
0010
0000
0000
1000
0100
0000
0000
0000
0001
0000
0000
0000
1000
0000
0000
0000
,
0001
0000
0000
0000
0100
0000
0000
0000
0010
0000
0000
1000
0001
0000
0000
0000
,
0000
0010
0000
0000
0100
0010
0001
0000
0000
1000
0000
0000
0000
0001
0000
0100
,
0000
0000
1000
0000
0000
0000
0100
0000
0000
1000
0001
0000
0000
0000
0100
0000
,
0001
0010
0100
0000
1000
0000
0010
0000
0001
0000
1000
0000
0100
0000
0010
0000
,
0001
0100
0100
1000
0100
0001
0100
1000
,
0010
1100
0001
0110
1000
0101
1000
0110
,
0001
1100
0010
1001
0100
1010
0001
0110
,
1000
0011
1000
0110
0001
1010
0100
1001
,
0010
1100
0001
1010
0100
0011
1000
0101
,
0010
0000
1001
0000
0100
0000
0011
0000
1000
0000
0001
0000
0100
0010
0100
0000
,
0001
0220
0000
1331
1000
1100
0100
0101
,
0001
1001
1000
1010
0010
0110
0100
0101
,
0001
1001
1000
1010
0010
0011
0001
1001
,
1000
1100
0100
0101
0001
0011
0010
1010
,
1000
1001
0001
0011
0010
0110
0100
0101
,
0001
1001
1000
1010
0010
0011
0001
1001
,
1000
1010
0010
0011
0001
1001
1000
1010
,
0010
0110
0100
0101
0001
1001
1000
1010
,
0010
0110
0100
0101
0001
1001
1000
1010
,
0010
0110
0100
0101
0001
0011
0010
1010
,
1000
1100
0100
0101
0001
1001
1000
1100
,
0100
0110
0010
1010
1000
1001
0001
0101
,
0100
1100
1000
1001
0001
0011
0010
1010
,
1000
1100
0100
0101
0001
1001
1000
1100
,
0100
0101
0001
1001
1000
1100
0100
0101
,
0001
0011
0010
2020
0000
3232
0000
0313
,
1100
1100
1100
1100
1000
1100
0100
0101
,
0001
0101
0100
0101
0001
1001
1000
1010
,
0010
0110
0100
0101
0001
1001
1000
1010
,
0010
0011
0001
1001
1000
1100
0100
0101
,
0001
0011
0010
1010
1000
1001
0001
0011
,
0010
0110
0100
0101
0001
1001
1000
1010
,
0010
0110
0100
0101
0001
0011
0010
1010
,
1000
1100
0100
0101
0001
1001
1000
1100
,
0100
0110
0010
1010
1000
1001
0001
0101
,
0100
1100
1000
1001
0001
0011
0010
1010
,
1000
1100
0100
0101
0001
1001
1000
1100
,
0100
0110
0010
0011
0001
1001
1000
1001
,
0001
0011
0010
0110
0100
1100
1000
1001
,
0001
0101
0100
0110
0010
1010
1000
1001
,
0001
0101
0100
0110
0010
1010
1000
1001
,
0001
0101
0100
0220
0000
2332
0000
3103
,
0010
2002
0000
3113
0010
1010
1000
1001
,
0001
0101
0100
0110
0010
1010
1000
1001
,
0001
0101
0100
0110
0010
0011
0001
1001
,
1000
1100
0100
0101
0001
0011
0010
1010
,
1000
1100
0100
0101
0001
0011
0010
1010
,
1000
1001
0001
0101
0100
1100
1000
1100
,
0100
0110
0010
1010
1000
1100
0100
0110
,
0010
0011
0001
0101
0100
0110
0010
0011
,
0001
0101
0100
0110
0010
1010
1000
1001
,
0001
0101
0100
0110
0010
1010
1000
1001
,
0001
0101
0100
0110
0010
1010
1000
1001
,
0001
0101
0100
0110
0010
0011
0001
1001
,
1000
1010
0010
0110
0100
0101
0001
0011
,
0010
1010
1000
1001
0001
0101
0100
1100
,
1000
1001
0001
0101
0100
0110
0010
0011
,
0001
1001
1000
2200
0000
3322
0000
1033
,
0011
0011
0011
0011
0001
0101
0100
1100
,
1000
1010
0010
0110
0100
0101
0001
1001
,
1000
1100
0100
0101
0001
1001
1000
1010
,
0010
0110
0100
1100
1000
1001
0001
0101
,
0100
1100
1000
1010
0010
0110
0100
0101
,
0001
1001
1000
1100
0100
0110
0010
0011
,
0001
1001
1000
1010
0010
0011
0001
0101
,
0100
1100
1000
1010
0010
0110
0100
0101
,
0001
1001
1000
1010
0010
0110
0100
1100
,
1000
1001
0001
0101
0100
1100
1000
1010
,
0010
0110
0100
0101
0001
1001
1000
1010
,
0010
0110
0100
0101
0001
1001
1000
1010
,
0010
0110
0100
1100
0010
0100
0001
0100
,
0001
0010
0100
0000
0001
0000
0100
0000
1000
0000
0100
0000
0010
0000
0100
0000
,
1000
0001
0100
0000
0010
0000
0100
0000
1000
0000
0100
0000
0001
0000
0100
0000
,
0010
1000
0100
0000
0000
0000
2000
0000
0000
0000
3002
0000
0000
0000
0013
0000
,
0010
0010
0010
1100
1100
0011
0011
1100
,
1100
0011
0011
1100
1100
0011
0011
1100
,
1100
0011
0011
1100
1100
0011
0011
1100
,
1100
0011
0011
1100
1100
0011
0011
1100
,
1100
0011
0011
1100
1100
0011
0011
1100
,
1100
0011
0011
1100
1100
0011
0011
1100
,
1100
0011
0011
1100
1100
0011
0011
1100
,
1100
0011
0011
1100
1100
0011
0011
1100
,
1100
0011
0011
1010
1010
0101
0101
1010
,
1010
0101
0101
1010
1010
0101
0101
1010
,
1010
0101
0101
1010
1010
0101
0101
1010
,
1010
0101
0101
1010
1010
0101
0101
1010
,
1010
0101
0101
1010
1010
0101
0101
1010
,
1010
0101
0101
1010
1010
0101
0101
1010
,
1010
0101
0101
1010
1010
0101
0101
1010
,
1010
0101
0101
1010
0101
1010
0101
2020
,
3030
0220
0000
1331
1001
0110
0110
1001
,
1001
0110
0110
1001
1001
0110
0110
1001
,
1001
0110
0110
1001
1001
0110
0110
1001
,
1001
0110
0110
1001
1001
0110
0110
1001
,
1001
0110
0110
1001
1001
0110
0110
1001
,
1001
0110
0110
1001
1001
0110
0110
1001
,
1001
0110
0110
1001
1001
0110
0110
1001
,
1001
0110
0110
1001
1001
0110
0110
1001
,
1001
0110
0110
1100
1100
0011
0011
1100
,
1100
0011
0011
1100
1100
0011
0011
1100
,
1100
0011
0011
1100
1100
0011
0011
1100
,
1100
0011
0011
1100
1100
0011
0011
1100
,
1100
0011
0011
1100
1100
0011
0011
1100
,
1100
0011
0011
1100
1100
0011
0011
1100
,
1100
0011
0011
1100
1100
0011
0011
1100
,
1100
0011
0011
1100
1100
0011
0011
1010
,
0000
0220
0000
1331
1001
0110
0110
1001
,
1001
0110
0110
1001
1001
0110
0110
0101
,
0000
2200
0000
3311
0011
1100
1100
0011
,
0011
1100
1100
0011
0011
1100
1100
1001
,
0000
0202
0000
1313
1010
0101
0101
1010
,
1010
0101
0101
1010
1010
0101
0101
1100
,
0000
0022
0000
1133
1100
0011
0011
1100
,
1100
0011
0011
1100
1100
0011
0011
1001
,
0000
2020
0000
3131
0101
1010
1010
1001
,
0000
0022
0000
1133
1100
0011
0011
1100
,
0000
0220
0000
1331
1001
0110
0110
1100
,
0000
2020
0000
3131
0101
1010
1010
0011
,
0000
2002
0000
3113
0110
1001
1001
1010
,
0000
0022
0000
1133
1100
0011
0011
1010
,
0000
0202
0000
1313
1010
0101
0101
0011
,
0000
2200
0000
3311
0011
1100
1100
1001
,
0000
0220
0000
1331
0000
0110
0000
0101
,
0000
0011
0000
1100
0000
1001
0000
0011
,
0000
1001
0110
1001
0000
1010
0000
0101
,
0000
0000
0110
0000
0000
0000
0011
0000
0000
0000
1010
0000
0000
0100
0011
0000
,
1100
0000
0011
0000
1100
0011
1100
0000
0000
0000
0110
0000
0000
0000
1010
0000
,
0000
0110
0000
0011
0000
0101
0000
0110
,
0000
1010
0101
1010
0000
0011
0000
0101
,
0000
0000
0011
0000
0000
0000
1010
0000
0000
0000
1001
0000
0000
0100
0011
0000
,
1100
0000
0011
0000
1100
0011
1100
0000
0000
0000
0011
0000
0000
0000
1010
0000
,
0000
0110
0000
0011
0000
1100
0000
0101
,
0000
0011
1100
0011
0000
1010
0000
0101
,
0000
0011
0000
1100
0000
0110
0000
0101
,
1100
0000
0011
0000
1100
0011
1100
0000
0000
0000
0110
0000
0000
0000
0011
0000
,
0000
1010
0000
1001
0000
0110
0000
0101
,
0000
1010
0101
1010
0000
1010
0000
1100
,
1100
1100
1100
0011
0011
0011
0011
1100
,
0001
0010
0100
1000
0001
0010
0100
1000
0000
0000
0000
0000
0000
0000
0000
0000
0011
0000
0000
0000
1100
0000
0000
0000
0011
0000
0000
0000
1100
0000
0000
0000
,
0011
1100
0011
1100
0110
0000
0110
0000
,
0110
0000
0110
0000
1100
0011
1100
0011
,
1100
0011
1100
0011
0110
0000
1001
0110
,
1001
0110
1001
0000
1010
0101
1010
0101
,
1010
0101
1010
0101
0110
0000
0110
0000
,
0110
0000
0110
0000
1100
0011
1100
0011
,
1100
0011
1100
0011
0110
0000
0101
1010
,
0101
1010
0101
0000
1001
0110
1001
0110
,
1001
0110
1001
0110
1010
0000
1010
0000
,
1010
0000
1010
0000
0110
1001
0110
1001
,
0110
1001
0110
1001
1010
0000
0101
1010
,
0101
1010
0101
0000
1100
0011
1100
0011
,
1100
0011
1100
0011
1010
0000
1010
0000
,
1010
0000
1010
0000
0110
1001
0110
1001
,
0110
1001
0110
2002
0000
3223
0000
1331
,
1001
1001
1001
0000
1001
0110
1001
0110
,
1001
0110
1001
0110
1100
0000
1100
0000
,
1100
0000
1100
0000
0101
1010
0101
1010
,
0101
1010
0101
1010
0011
0000
1100
0011
,
1100
0011
1100
0000
0101
1010
0101
1010
,
0101
1010
0101
1010
1001
0000
1001
0000
,
1001
0000
1001
0000
1010
0101
1010
0101
,
1010
0101
1010
0101
1001
0000
0110
1001
,
0110
1001
0110
0000
0011
1100
0011
1100
,
0011
1100
0011
1100
1001
0000
1001
0000
,
1001
0000
1001
0000
1010
0101
1010
0101
,
1010
0101
1010
0101
1001
0000
1100
0011
,
1100
0011
1100
0000
0110
1001
0110
1001
,
0110
1001
0110
1001
0011
0000
0011
0000
,
0011
0000
0011
0000
1001
0110
1001
0110
,
1001
0110
1001
0011
0000
0110
0000
1100
,
0000
0011
1100
0011
0000
1100
0000
0110
,
1001
0110
1001
0110
0000
1001
0000
0101
,
1010
0101
1010
0101
0000
1010
0000
1100
,
0011
1100
0011
1100
0000
0011
0000
0110
,
1001
0110
1001
0110
0000
1001
0000
0101
,
1010
0101
1010
0101
0000
1010
0000
1100
,
0011
1100
0011
1100
0000
0011
0000
1010
,
0101
1010
0101
1010
0000
0101
0000
1100
,
0011
1100
0011
1100
0000
0011
0000
1001
,
0110
1001
0110
1001
0000
0110
0000
1010
,
0101
1010
0101
1010
0000
0101
0000
0011
,
1100
0011
1100
0011
0000
1100
0000
0101
,
1010
0101
1010
0101
0000
1010
0000
0110
,
1001
0110
1001
0110
0000
1001
0000
1100
,
0011
1100
0011
1100
0000
0011
0000
0110
,
1001
0000
0110
0000
1001
0000
0110
0000
0000
0000
1100
0000
0000
0100
0011
0000
,
0000
0000
0000
0000
1000
0100
0010
0001
1000
0100
0010
0001
0000
0000
0000
0000
0101
0000
0000
0000
1010
0000
0000
0000
0101
0000
0000
0000
1010
0000
0000
0000
,
0101
1010
0101
1010
1100
0000
1100
0000
,
1100
0000
1100
0000
1010
0101
1010
0101
,
1010
0101
1010
0101
1100
0000
0011
1100
,
0011
1100
0011
0000
0110
1001
0110
1001
,
0110
1001
0110
1001
1100
0000
1100
0000
,
1100
0000
1100
0000
1010
0101
1010
0101
,
1010
0101
1010
0101
1100
0000
1001
0110
,
1001
0110
1001
0000
0011
1100
0011
1100
,
0011
1100
0011
1100
0110
0000
0110
0000
,
0110
0000
0110
0000
1100
0011
1100
0011
,
1100
0011
1100
0011
0110
0000
1001
0110
,
1001
0110
1001
0000
1010
0101
1010
0101
,
1010
0101
1010
0101
0110
0000
0110
0000
,
0110
0000
0110
0000
1100
0011
1100
0011
,
1100
0000
0011
0000
1100
0000
0011
0000
0000
0000
1100
0000
0000
0100
0011
0000
,
0000
0000
0000
0000
0001
0010
0100
1000
0001
0010
0100
1000
0000
0000
0000
0000
0000
0000
0000
0000
0011
0000
0000
0000
0000
0000
0000
0000
1010
0000
0000
0000
,
0101
1010
0101
1010
0000
0101
0000
0011
,
1100
0011
1100
0011
0000
1100
0000
1001
,
0110
1001
0110
1001
0000
0110
0000
1100
,
0011
1100
0011
1100
0000
0011
0000
1010
,
0101
1010
0101
1010
0000
0101
0000
0011
,
1100
0011
1100
0011
0000
1100
0000
0101
,
1010
0101
1010
0101
0000
1010
0000
1001
,
0110
1001
0110
1001
0000
0110
0000
1010
,
0101
1010
0101
1010
0000
0101
0000
0011
,
1100
0011
1100
0011
0000
1100
0000
0110
,
1001
0110
1001
0110
0000
1001
0000
0011
,
1100
0011
1100
0011
0000
1100
0000
0101
,
1010
0101
1010
0101
0000
1010
0000
1001
,
0110
1001
0110
1001
0000
0110
0000
0011
,
1100
0000
0011
0000
1100
0000
0011
0000
0000
0000
1100
0000
0000
0001
1010
0000
,
0000
0000
0000
0000
0001
0010
0100
1000
0001
0010
0100
1000
0000
0000
0000
0000
0000
0000
0000
0000
0000
0000
0000
0000
0000
0000
0000
0000
0000
0000
0000
0000
;
